◎译  名 战火球星 / The Keeper / 特劳特曼◎片  名 Trautmann◎年  代 2018◎产  地 英国 / 德国◎类  别 剧情 / 爱情 / 传记 / 战斗 / 活动◎语  言 英语 / 德语◎上映日期 2019-03-14(德国) / 2019-04-05(英国)◎IMDb评分 7.1/10 from 533 users◎IMDb链接?http://www.****/title/tt4642192◎豆瓣评分 0/10 from 0 users◎豆瓣链接 https://movie.******/subject/27068118/◎片  长 120分钟◎导  演 马库斯.H.罗森米勒 Marcus H. Rosenmüller◎编  剧 Robert Marciniak / 马库斯.H.罗森米勒 Marcus H. Rosenmüller / 尼古拉斯.J.斯科菲尔德 Nicholas J. Schofield◎主  演 大卫.克劳斯 David Kross      弗雷娅.梅弗 Freya Mavor      约翰.亨肖 John Henshaw      哈利.米尔林 Harry Melling      迈克尔.索恰 Michael Socha      戴夫.琼斯 Dave Johns      Barbara Young      Mikey Collins      加里.刘易斯 Gary Lewis      德乌拉.基尔万 Dervla Kirwan      麦斯米兰.贝佛特 Maximilian Befort      伊恩.T.迪金森 Ian T. Dickinson      斯蒂夫.哈德森 Steve Hudson◎标  签 传记 | 足球 | 体育 | 德国 | 战斗 | 德英合拍 | 英国 | 2018◎简  介?  由大卫.克劳斯([朗读者])主演的传记片[特劳特曼]已在北爱尔兰开拍。该片由Marcus H. Rosenmüller执导。故事主人公伯特.特劳特曼是二战中被英国作为战俘带回国的德国士兵。一位足球司理发清楚明了他的禀赋并让他参加曼城球队。这里的人们对此提出抗议,但他出色的表示最终博得了人人的尊敬。◎获奖情况?  第9届北京国际片子节(2019)  天坛奖 最佳男副角奖 约翰.亨肖  天坛奖(提名) 马库斯.H.罗森米勒
VideoID : 1Format : AVCFormat/Info : Advanced Video CodecFormat profile :?[url=mailto:[email?protected]][email?protected][/url]Format settings : CABAC / 5 Ref FramesFormat settings, CABAC : YesFormat settings, Reference frames : 5 framesCodec ID : V_MPEG4/ISO/AVCDuration : 1 h 58 minBit rate : 8 053 kb/sWidth : 1 920 pixelsHeight : 808 pixelsDisplay aspect ratio : 2.40:1Frame rate mode : ConstantFrame rate : 24.000 FPSColor space : YUVChroma subsampling : 4:2:0Bit depth : 8 bitsScan type : ProgressiveBits/(Pixel*Frame) : 0.216Stream size : 6.53 GiB (82%)Writing library : x264 core 158 r2984 3759fcbEncoding settings : cabac=1 / ref=5 / deblock=1:-3:-3 / analyse=0x3:0x113 / me=umh / subme=8 / psy=1 / psy_rd=1.00:0.00 / mixed_ref=1 / me_range=32 / chroma_me=1 / trellis=2 / 8x8dct=1 / cqm=0 / deadzone=21,11 / fast_pskip=1 / chroma_qp_offset=-2 / threads=18 / lookahead_threads=3 / sliced_threads=0 / nr=0 / decimate=1 / interlaced=0 / bluray_compat=0 / constrained_intra=0 / bframes=3 / b_pyramid=2 / b_adapt=2 / b_bias=0 / direct=3 / weightb=1 / open_gop=0 / weightp=2 / keyint=240 / keyint_min=24 / scenecut=40 / intra_refresh=0 / rc_lookahead=50 / rc=2pass / mbtree=1 / bitrate=8053 / ratetol=1.0 / qcomp=0.60 / qpmin=0 / qpmax=69 / qpstep=4 / cplxblur=20.0 / qblur=0.5 / ip_ratio=1.40 / aq=3:0.80Default : YesForced : NoStatistics Tags Issue : no_variable_data 1970-01-01 00:00:00 / no_variable_data 2010-02-22 21:41:29FromStats_BitRate : 8047957FromStats_Duration : 01:58:56.000000000FromStats_FrameCount : 171264FromStats_StreamSize : 7178777686AudioID : 2Format : DTSFormat/Info : Digital Theater SystemsCodec ID : A_DTSDuration : 1 h 58 minBit rate mode : ConstantBit rate : 1 509 kb/sChannel(s) : 6 channelsChannel layout : C L R Ls Rs LFESampling rate : 48.0 kHzFrame rate : 93.750 FPS (512 SPF)Bit depth : 24 bitsCompression mode : LossyStream size : 1.25 GiB (16%)Language : EnglishDefault : YesForced : NoStatistics Tags Issue : no_variable_data 1970-01-01 00:00:00 / no_variable_data 2010-02-22 21:41:29FromStats_BitRate : 1509000FromStats_Duration : 01:58:56.000000000FromStats_FrameCount : 669000FromStats_StreamSize : 1346028000Text #1ID : 3Format : UTF-8Codec ID : S_TEXT/UTF8Codec ID/Info : UTF-8 Plain TextTitle : ForcedLanguage : EnglishDefault : YesForced : YesStatistics Tags Issue : no_variable_data 1970-01-01 00:00:00 / no_variable_data 2010-02-22 21:41:29FromStats_BitRate : 2FromStats_Duration : 01:31:40.249000000FromStats_FrameCount : 83FromStats_StreamSize : 1929Text #2ID : 4Format : UTF-8Codec ID : S_TEXT/UTF8Codec ID/Info : UTF-8 Plain TextLanguage : EnglishDefault : NoForced : NoStatistics Tags Issue : no_variable_data 1970-01-01 00:00:00 / no_variable_data 2010-02-22 21:41:29FromStats_BitRate : 55FromStats_Duration : 01:50:29.750000000FromStats_FrameCount : 1330FromStats_StreamSize : 45749Text #3ID : 5Format : UTF-8Codec ID : S_TEXT/UTF8Codec ID/Info : UTF-8 Plain TextTitle : SDHLanguage : EnglishDefault : NoForced : NoStatistics Tags Issue : no_variable_data 1970-01-01 00:00:00 / no_variable_data 2010-02-22 21:41:29FromStats_BitRate : 61FromStats_Duration : 01:51:23.708000000FromStats_FrameCount : 1514FromStats_StreamSize : 51647Menu00:00:00.000 : en:Chapter 0100:09:52.625 : en:Chapter 0200:19:43.792 : en:Chapter 0300:29:04.292 : en:Chapter 0400:39:03.458 : en:Chapter 0500:49:00.583 : en:Chapter 0601:00:22.875 : en:Chapter 0701:10:02.292 : en:Chapter 0801:22:29.167 : en:Chapter 0901:29:57.833 : en:Chapter 1001:40:48.208 : en:Chapter 1101:53:06.417 : en:Chapter 12
[种子名称]:9.torrent[下载地址]: http://www1.downsx.pw/torrent/B6E291E618A20666C6663306FEDF213817669432